e-shop Sapro BENDR SK

AB-FÓRUM - Satelitné fórum (Satelity, DVB-T, DVB-C)

Česko-Slovenské diskusní fórum nejen o satelitním příjmu televizních programů.
Právě je 25.Únor 2020 - 15:30

Všechny časy jsou v UTC+01:00




Poslat nové téma  Odpovědět do tématu  [ 1 příspěvek ] 
Autor Zpráva
PříspěvekOdeslal: 21.Leden 2020 - 9:15 
Offline
Pokročilý
Pokročilý
Avatar uživatele

Registrován: 20.Duben 2009 - 10:32
Příspěvky: 106
satelitni prijimac: Formuler F4 Turbo COMBO
Poděkoval: 1 krát
Poděkováno: 6 krát
Ahojte. Hledám řešení problému při přehrávání videa. Obraz vykazuje artefakty v podobě "kostiček" zobrazujících se v rychle se měnících částech videa. Tam kde je obraz v pohybu tak se vytvoří taková hranatá matlanice.
Porovnal jsem parametry videa které to dělá a které ne a vidím pouze marginální rozdíly v nastavení kodeku. Možná vadí framerate? Parametry videí přikládám. Nevím jak na Formuleru F4 Turbo "posílit" nebo nahradit přehrávač videí. Asi se aktualizuje jenom s kompletní aktualizací image. Nebo lze doinstalovat i jiný přehrávač s jiným dekodérem pro video?


Video které je přehráváno bez problémů:

Video
ID : 1
Format : AVC
Format/Info : Advanced Video Codec
Format profile : High@L4
Format settings : CABAC / 4 Ref Frames
Format settings, CABAC : Yes
Format settings, Reference frames : 4 frames
Format settings, GOP : M=1, N=50
Codec ID : avc1
Codec ID/Info : Advanced Video Coding
Duration : 24 min 25 s
Bit rate : 4 000 kb/s
Width : 1 920 pixels
Height : 1 080 pixels
Display aspect ratio : 16:9
Frame rate mode : Constant
Frame rate : 25.000 FPS
Color space : YUV
Chroma subsampling : 4:2:0
Bit depth : 8 bits
Scan type : Progressive
Bits/(Pixel*Frame) : 0.077
Stream size : 694 MiB (97%)
Writing library : x264 core 157 r2935 545de2f
Encoding settings : cabac=1 / ref=4 / deblock=1:0:0 / analyse=0x3:0x113 / me=hex / subme=8 / psy=1 / psy_rd=1.00:0.00 / mixed_ref=1 / me_range=16 / chroma_me=1 / trellis=2 / 8x8dct=1 / cqm=0 / deadzone=21,11 / fast_pskip=1 / chroma_qp_offset=0 / threads=12 / lookahead_threads=2 / sliced_threads=0 / nr=0 / decimate=1 / interlaced=0 / bluray_compat=0 / stitchable=1 / constrained_intra=0 / bframes=0 / weightp=0 / keyint=50 / keyint_min=26 / scenecut=0 / intra_refresh=0 / rc_lookahead=50 / rc=2pass / mbtree=1 / bitrate=4000 / ratetol=1.0 / qcomp=0.60 / qpmin=0 / qpmax=69 / qpstep=4 / cplxblur=20.0 / qblur=0.5 / vbv_maxrate=4000 / vbv_bufsize=4000 / nal_hrd=none / filler=0 / ip_ratio=1.40 / aq=1:1.00
Codec configuration box : avcC


Video které kostičkuje:
Video
ID : 1
Format : AVC
Format/Info : Advanced Video Codec
Format profile : High@L5
Format settings : CABAC / 5 Ref Frames
Format settings, CABAC : Yes
Format settings, Reference frames : 5 frames
Codec ID : avc1
Codec ID/Info : Advanced Video Coding
Duration : 44 min 29 s
Bit rate : 5 648 kb/s
Width : 1 920 pixels
Height : 1 080 pixels
Display aspect ratio : 16:9
Frame rate mode : Constant
Frame rate : 23.976 (24000/1001) FPS
Color space : YUV
Chroma subsampling : 4:2:0
Bit depth : 8 bits
Scan type : Progressive
Bits/(Pixel*Frame) : 0.114
Stream size : 1.76 GiB (97%)
Writing library : x264 core 155
Encoding settings : cabac=1 / ref=5 / deblock=1:0:0 / analyse=0x3:0x113 / me=hex / subme=8 / psy=1 / psy_rd=1.00:0.00 / mixed_ref=1 / me_range=16 / chroma_me=1 / trellis=2 / 8x8dct=1 / cqm=0 / deadzone=21,11 / fast_pskip=1 / chroma_qp_offset=-2 / threads=34 / lookahead_threads=5 / sliced_threads=0 / nr=0 / decimate=1 / interlaced=0 / bluray_compat=0 / constrained_intra=0 / bframes=3 / b_pyramid=2 / b_adapt=1 / b_bias=0 / direct=3 / weightb=1 / open_gop=0 / weightp=2 / keyint=90 / keyint_min=46 / scenecut=0 / intra_refresh=0 / rc_lookahead=50 / rc=crf / mbtree=1 / crf=18.0 / qcomp=0.60 / qpmin=0 / qpmax=69 / qpstep=4 / vbv_maxrate=14000 / vbv_bufsize=583 / crf_max=21.0 / nal_hrd=none / filler=0 / ip_ratio=1.40 / aq=1:1.00
Codec configuration box : avcC

_________________
BOX: Formuler F4 Turbo Combo OpenATV
TV: LG 50PA6500


Nahoru
   
Zobrazit příspěvky za poslední:  Seřadit podle  
Poslat nové téma  Odpovědět do tématu  [ 1 příspěvek ] 

Všechny časy jsou v UTC+01:00


Kdo je online

Uživatelé prohlížející si toto fórum: Nejsou tu žádní registrovaní uživatelé a 1 host


Nemůžete posílat nová témata
Nemůžete odpovídat v tématech
Nemůžete upravovat vlastní příspěvky
Nemůžete mazat vlastní příspěvky
Nemůžete posílat přílohy

Najít:
Přejít na:  
ellano.sk