e-shop Sapro BENDR SK

AB-FÓRUM - Satelitné fórum (Satelity, DVB-T, DVB-C)

Česko-Slovenské diskusní fórum nejen o satelitním příjmu televizních programů.
Právě je 21.Únor 2019 - 12:30

Všechny časy jsou v UTC+01:00


Pravidla fóra


Sekcia určená na diskusiu k prijímačom VU+ . Nevkladať prílohy - maximálne obrázky !



Poslat nové téma  Odpovědět do tématu  [ 5 příspěvků ] 
Autor Zpráva
 Předmět příspěvku: problem s prehravanim .avi
PříspěvekOdeslal: 08.Únor 2019 - 15:19 
Offline
Mírně pokročilý
Mírně pokročilý

Registrován: 27.Prosinec 2013 - 11:08
Příspěvky: 45
Zdravim
Mam vu zero 4k da sa nejako nastavit cez enigmu aby prehraval .avi format alebo je to beznadejne? a len novy prijmac :(


Nahoru
   
 Předmět příspěvku: Re: problem s prehravanim .avi
PříspěvekOdeslal: 08.Únor 2019 - 15:23 
Offline
Pokročilý
Pokročilý

Registrován: 19.Září 2013 - 1:39
Příspěvky: 264
Poděkoval: 4 krát
Poděkováno: 87 krát
p3dr04444 napsal:
Zdravim
Mam vu zero 4k da sa nejako nastavit cez enigmu aby prehraval .avi format alebo je to beznadejne? a len novy prijmac :(

AVI nie je format. AVI je kontajner. Zavisi, v akom kodeku je video v tom kontajneri.... Stiahni si na PC program GSPOT (google najde kde) a hod tu to info o AVI, co ti nechce prehrat satak.....

Tu napr. som na skusku vyskusal na UNO 4K prehrat(bez problemov) AVI s xvid:
General
Complete name :
Format : AVI
Format/Info : Audio Video Interleave
File size : 3.35 MiB
Duration : 8 s 960 ms
Overall bit rate : 3 135 kb/s
Writing application : Lavf52.84.0

Video
ID : 0
Format : xvid
Codec ID : xvid
Duration : 8 s 960 ms
Bit rate : 2 987 kb/s
Width : 1 280 pixels
Height : 720 pixels
Display aspect ratio : 16:9
Frame rate : 25.000 FPS
Scan type : Progressive
Bits/(Pixel*Frame) : 0.130
Stream size : 3.19 MiB (95%)

Audio
ID : 1
Format : MPEG Audio
Format version : Version 1
Format profile : Layer 3
Format settings : Joint stereo / MS Stereo
Codec ID : 55
Codec ID/Hint : MP3
Duration : 8 s 808 ms
Bit rate mode : Constant
Bit rate : 128 kb/s
Channel(s) : 2 channels
Sampling rate : 48.0 kHz
Compression mode : Lossy
Stream size : 138 KiB (4%)
Alignment : Aligned on interleaves
Interleave, duration : 24 ms (0.61 video frame)
Writing library : LAME3.98.4


Nahoru
   
 Předmět příspěvku: Re: problem s prehravanim .avi
PříspěvekOdeslal: 08.Únor 2019 - 17:09 
Offline
Legenda Fóra
Legenda Fóra
Avatar uživatele

Registrován: 26.Září 2011 - 16:03
Příspěvky: 5466
satelitni prijimac: Všetko-4K
Místo/Bydliště: chlpatá dedinka okres pupok .
Poděkoval: 42 krát
Poděkováno: 123 krát
on píše o Zero4K a nie o Uno4K to je sakra rozdiel na prehrávanie AVI súboru ... [-X mne tiež prehrá Solo4K všetko čo mám na HDD v AVI , ale Zero4K si ani nepípne ... :D obávam sa že v Zero4K ako si aj sám zistil si s AVI nepípneš ... takže bud iný box ,alebo si to prerob v pc na formát ktorý ti Zero4K prehrá ... napr. MKV ... :good: AVI vraj už nikto nepoužíva .... :o

_________________
Všetko 4K


Nahoru
   
 Předmět příspěvku: Re: problem s prehravanim .avi
PříspěvekOdeslal: 08.Únor 2019 - 19:46 
Offline
Pokročilý
Pokročilý
Avatar uživatele

Registrován: 08.Leden 2011 - 22:03
Příspěvky: 223
satelitni prijimac: VU+SOLO4K, VU+ UNO
Poděkoval: 2 krát
Poděkováno: 16 krát
Pokud jde o Zero 4K a Duo 4K, tak avička nepůjdou nikdy! Viz. následující vyjádření:

"Co se týká přehrávání některých zejména AVI souborů, oficiální distributor značky VU+ firma AB-COM, s.r.o. upozorňuje, že v důsledku použitého typu procesoru v přijímači VU+ Duo 4K není k dispozici HW podpora kodeku DivX a XviD podobně jako u modelu VU+ Zero 4K."

_________________
Vu+Solo 4K, VU+UNO, (VTI v14.0.1, skin MyMetrixFHD vlastní výroby, OScam 11486, karta-SKYLINK ICE v režimu IRDETO)
parabola 90, Twin LNB, motor-Digipower SG-2100, TV-LED LG 42" 42LE4500.


Nahoru
   
 Předmět příspěvku: Re: problem s prehravanim .avi
PříspěvekOdeslal: 14.Únor 2019 - 6:33 
Offline
Mírně pokročilý
Mírně pokročilý

Registrován: 27.Prosinec 2013 - 11:08
Příspěvky: 45
no nic tak jedine na mkv formatovat diki za odpvoed :)


Nahoru
   
Zobrazit příspěvky za poslední:  Seřadit podle  
Poslat nové téma  Odpovědět do tématu  [ 5 příspěvků ] 

Všechny časy jsou v UTC+01:00


Kdo je online

Uživatelé prohlížející si toto fórum: kejkla a 1 host


Nemůžete posílat nová témata
Nemůžete odpovídat v tématech
Nemůžete upravovat vlastní příspěvky
Nemůžete mazat vlastní příspěvky
Nemůžete posílat přílohy

Najít:
Přejít na:  
ellano.sk